Manhua Scans

Read Rich Player Manga/Manhua in English! Acting pretentious is his hobby! Being the ultimate rich player, he’s used to spending “huge expenses” for his new armor and equipment around others. Manga, Manhua, & Manhwa. Find popular manga like Tower of God, One Piece, Onepunch-Man, The Gamer, Boku no Hero Academia, The God of High School. Somos un grupo que traduce mangas y manhuas de distintos géneros al español ♥. Compartir Manhua. English Wiktionary. Full analysis about manhuascan. In the post-civilization era, earth anomalies occurred frequently, and strange fruits appeared in famous mountains and rivers. Dark mode is available, please turn it on in the settings page if you need it. All our manhua content is protected under copyrighted law. Com sua ambição atingida, ele entrega seu legado à seita e se joga do temível 'Pico do Inferno'. Answer Save. A few years later, she showed up with her son, Bao! As a little man, the biggest dream of Bao is to help his mom find a perfect husbandContinue Reading →. di Semua Forum. Read Manhua Hot. MangaKakalot - Read your favorite mangas scans and scanlations online at MangaKakalot. A refreshing adventure/fantasy shoujo manhua with a lot of comedy! Hope you will enjoy it! Crystal CSS Reader - Intro Chapter Manga Dex - Intro Chapter CSS Reader - Chapter 1 Manga Dex - Chapter 1. Martial arts. it Manhua Scans. List hoàn: Manga: Manhwa: Webtoon: Manhua: Drop: Một số bộ truyện có lịch update đây nhé: Ánh trăng: 10,20,30 hàng tháng Nhân viên mới: 1, 11,21 hàng tháng. 141 Page All; Joo seo-cheon, a man who survives the age of war through sheer luck and becomes hwasan factions elder only to live a life full of regrets and doubts. Read 19 Days with english scans. Her family was murdered and an ongoing war ended her life, but she traveled. Feel free to join them by clicking the "Discord" icon. Magical girls. 143 Page All; Joo seo-cheon, a man who survives the age of war through sheer luck and becomes hwasan factions elder only to live a life full of regrets and doubts. Raw translation. 4th As I've been having some issues with Wordpress lately (as you may have noticed the chapters were'nt fully uploaded in the end), I've decided to keep posting the translations on Mangadex. I'm a huge fan of manga/manhua/webtoon. book Manhua. When Luo Lie wakes up, he’s in another world, dressed in different clothes, and people approach him calling him “Young Master”! Now Luo Lie. us! Here are 28000+ manga/manhwa series of high-quality which are daily updated!. The more ruthless the Palace is, the more miserable the loser will end up—this he understands. Action Bách Hợp Báo thù Boy Love Cổ đại Cung đấu Drama Đam Mỹ Đô Thị Historical Huyền Huyễn Kinh dị Magic Manhua Mạo Hiểm Ngôn Tình Nhân Thú Quân Nhân Romance School life Shoujo. Hey hey hey, good news, everyone! Starting from next Monday, the upload schedule will be increased to 14/week! It's been a long time coming, and I'm really grateful for the patience you've all displayed while we gradually increased the uploads from 7/week. Manhua is a genre of Chinese comics that is unique and outstanding today. Keep Support and Keep Sharing Us. Merely sitting at his desk one day, he suddenly becomes surrounded in bright light and sees a mysterious golden figure that strikes within him. Lire vos Scans Lecture en ligne Des Mangas sur scans-mangas. Now definitely the manga, manhwa and manhua community is oozing with plots depicting game worlds, this one was among the firsts to introduce it. The Grandmaster of Demonic Cultivation. Ici, vous contactez l'équipe du site Scan-Manga, pas les teams de scantrad Pseudo * Email Message * < 4000 caractères. Normal lungs should appear black on a CT scan. Isekai Scans - tlme. Volume [DELETED] Chapter 64: Lilitte Tarwitt. Raw translation. Latest Release(s) c. Silver Leaf Scanlations. Chapter 3 - Episode 1 – Starting the Paid Service (3) Manhwa. Pregnant Wife, One Plus One with other name The Duke’s Hidden Baby: BOGO! and Pregnant Wife And The Little Ones is manhua from zinmanga and best manhua 2020. Two guys one cup——ped face. Home>YAOI/MANHUA/MANHWA. Manhua Update Rate: Tuesdays and Fridays. With one challenge after another popping up, his plans for a low-key high school life seem further and further away…. read manhua scan online? anybody here now where i can read translated manhua (chinese comics) scan online? like long hu man, demi gods, etc? thanks a lot before. Return From The World Of Immortals. 25: Medicine Pavilion Newbie Jul 29, 2017 Feng Qi Cang Lan Manhua Ch. We wants to spread the love of digital comics and share it with people around the world. This young comic book owner tries to survive, but bad luck is on him. Yaoi Angels Scans. I'm a huge fan of manga/manhua/webtoon. Read manga manhua, manga manhwa online for free, fast update, daily update. Mas ele nunca poderia ter imaginado que isso iria levá-lo para um outro mundo, um sem artes marciais ou. BRS Manhua Scans. term of endearment, usually between two male friends. di Manga, Manhua, & Manhwa. All Comics. MangaHelpers is a place where you can find translations for Shonen Manga, Shoujo Manga, Jyousei Manga. Terima kasih karena sudah mengunjungi situs resmi MangaSusu. What happens when fellow student Jaemin stumbles upon his secret? Winning Contest Entry on Bomtoon~ No announcement of serialization. A Seita Tang, a mais famosa seita de artes marciais de todo o mundo. Chapter 45. Summar y: Li Xao Yao left S. Read english manga online free with a huge collections at Manga Owl, update fastest, most full, synthesized, translate free with high-quality images. Ao roubar os seus ensinamentos mais secretos para cumprir seus sonhos, Tang San cometeu um crime imperdoável. Evolutionary Game. Actively scan device characteristics for identification. Me Webtoon Manga ✅ - Read Even If You Don't Love Me Webtoon Manga Scans at MangaReader. Martial Scans is a group originally formed by Natsu as the sole member, a one man army, to provide quality scanlations for the Manhua he enjoyed. Reading manhua Douluo Dalu II - Jueshui Tangmen Chapter 224 for free with english scans. 8 Max Level Returner 13 minutes ago Vol. I have recently joined Aqua Scans as their translator for a couple of Shoujo manga too. Read Volcanic Age ch. In a land where there is no magic, a land where the strong make the rules and weak have to obey, a land filled with alluring treasures and beauty, yet also filled with unforeseen danger. Dessa vez estou totalmente munido contra spoilers porque não quero dropar esse projeto♥️. Manhwa is a genre of Korean comics that is unique and outstanding today. Read Manga, Manhua, Manhwa Online, Free webtoon Online, Updated Daily!. Read our Manga updates. 악녀의 애완동물 | The Antagonist's Pet (Manhwa) (1). Perdeu sua senha? Digite seu nome de usuário ou endereço de email. com A teenager holds a pen, while a dragon dances; Chaos surrounds the world, lighting the sky. We are open to all suggestions, and will consider project ideas if they are in Chinese. I'm a huge fan of manga/manhua/webtoon. Pero no importa si no saben hacer lo anterior mencionado pueden unirse de todas formas. Manga Raw, Japanscan , Weekly Shonen Jump, Weekly Shonen Magazine, Weekly Shonen Sundays, Weekly Young Jump,etc. di Semua Forum. Manga/Manhua Requests Please provide the name of the manga/manhua and the mangaupdates page to it. Dessa vez estou totalmente munido contra spoilers porque não quero dropar esse projeto♥️. Manhua scans - ab. Ireland, possible Gaelic origin. New Releases Vol. © 2019 Dream Scans. AllManga - Read hot manga free online at AllManga. Normal lungs should appear black on a CT scan. Lorsque la timide Wu You déménage dans un nouveau lycée, elle s'attache rapidement à sa nouvelle camarade de bureau, la grégaire Ye Yin. A refreshing, unique villainess who’s been dropped in the world of a novel, only to overthrow it all! The reason why? She couldn’t just stand by and watch the female lead be manipulated by all four shitty male leads. Check manhuascan valuation, traffic estimations and owner info. Series de calidad online! Mangas en alta calidad, en español y gratis. MangaHome is the best site to read Today's Shou-Joke Manhwa 35 free online. Now, in a land that is equally divided up between man and woman, the battle of the sexes is on!. If you continue to use this site we will assume that you are happy with it. Reply Delete. Download Yaoshenji Scan Pics. Against the Gods Manhua. Lire vos Scans préférés de manga en ligne Chapitre One piece VF en ligne, Chapitre Boruto VF en ligne , Chapitre Hunter X Hunter VF en ligne, et des autres scans en version Français tous ça sur FRscan. YAOI/MANHUA/MANHWA “Nhấn vào tên trên đầu mỗi tựa truyện để đến trang mục lục”. Un niño de material de desecho con el apodo de "Dios dormido" ha comenzado a obtener una bendición debido a la desgracia. Read Manga, Manhua, Manhwa Online, Free webtoon Online, Updated Daily!. MangaHelpers is a place where you can find translations for Shonen Manga, Shoujo Manga, Jyousei Manga. Manga Manhua Manhwa Discord. Manwha recommendations. These titles usually have authors and artists that are Chinese, and/or were first published in China. 1 Takipçi, 6 Takip Edilen, 3 Gönderi - Manhua'in (@man_hua) Instagram fotoğraflarını ve videolarını gör. info Manga Infomation. ) keyboard keys or click on the Lady Baby ch. Martial arts. If you continue to use this site we will assume that you are happy with it. 096, please read Lady Baby ch. List hoàn: Manga: Manhwa: Webtoon: Manhua: Drop: Một số bộ truyện có lịch update đây nhé: Ánh trăng: 10,20,30 hàng tháng Nhân viên mới: 1, 11,21 hàng tháng. AniMANTr - Türkçe altyazı anime manga donghua manhua manhwa webtoon izleme yeri. A Seita Tang, a mais famosa seita de artes marciais de todo o mundo. We have moved! April 28, 2012 by FriendshipScans. com is tracked by us since May, 2017. "Nhấn vào tên trên đầu. Manga Raw, Japanscan , Weekly Shonen Jump, Weekly Shonen Magazine, Weekly Shonen Sundays, Weekly Young Jump,etc. Doupo Cangqiong Manhua Traduzido Pela Argos Scan. Read manga manhua, manga manhwa online for free, fast update, daily update. These titles usually have authors and artists that are Chinese, and/or were first published in China. Luo Zheng, now a humble slave was born as the eldest son of a wealthy family. That’s why we’re asking any of our fans who do have access to a Korean cell phone to help us out by securing the raws for the 18+ chapter once it becomes unlocked. Re-read while waiting for new chapter for manhwa to come out. Read our Manhua translations online at Banana Scans. A partir de entonces, una resurrección súper grande, lucha contra el mundo y acepta Warcraft. A little about us: We are a very loose group and have an irregular update schedule. Dessa vez estou totalmente munido contra spoilers porque não quero dropar esse projeto♥️. Here’s the masterlist for the long-awaited TGCF manhua! This list will constantly be updated and reblogged. 14 I, who blocked the demon king's ultimate attack, ended up as the little hero's nanny 1 day ago Vol. Volume DELETED Chapter 84: Get to the Point (half) 「不明」 638 days ago. Include Characters. Compared to normal players, he always have the most extravagant equipment and armor. LoveToKnow. After dying from an accident, she was reborn in the body of a disfigured lady. Summary: Follow an Idiotic Alpha and an Omega’s puppy love on full display during their day-to-day life. Check manhuascan valuation, traffic estimations and owner info. The Jinx's Lover. Chapter 45 1 day ago. Read our Manga updates. Raw translation. Max Level Returner. October 11, 2017. Read your favorite Queen Bee manhwa and webtoons translated to english for free. Scan Cangqiong Bang Zhi Wan Shou Gui Yuan 28 VF : Qi Hai. Martial arts. Summary: The author didn’t write one and I’m way to lazy to write one too. Read Manhua Online, Absolutely Free and Updated Daily. Answer Save. read Manhua's and Manga's in english, One Thousand Live Broadcast Big Local Tyrant Chapter 4. he then lies on his death bed waiting for the inevitable when he is returned to the past…. In total there is 0 user online :: 0 Registered, 0 Hidden and 0 Guests :: 1 Bot Most users ever online was 10 on Sat May 16, 2020 1:13 am. Chibi Lover Scans. Survive as the Heros Wife - Read Survive as the Heros Wife Chapter 47 - Read Online. Every page is fully coloured, adding to the viewing enjoyments. it Isekai Scans. This is my favourite manhua. We are open to all suggestions, and will consider project ideas if they are in Chinese. The King of Fighters'99: Millennium Battle (拳皇'99千年之战) is a thirty-eight-volume manhua series illustrated and conceived by Xu Jingwei, which was officially sponsored by SNK from Hong Kong and published by NEOSUN. Baca Komik Manga dan Manhwa Indonesia. BRS Manhua Scans. Hello, welcome to Chibi Lover Scans. (And I was even excited to complete the translation for the. FAKE MARIAGE TRUE LOVE Wi Wi was forced to replace her sister to marry an old man. Merely sitting at his desk one day, he suddenly becomes surrounded in bright light and sees a mysterious golden figure that strikes within him. 123 by Hero Manhua 7 days ago v. 247 Yong Heng Zhi Zun. Manhua (0) Manhwa (0) Martial Arts (1). Yaoshenji average 0 / 5 out of 1. All Comics. Isekai Manhwa Clan Darksoulis 2 years ago. Doupo Cangqiong Manhua Traduzido Pela Argos Scan. Yeni şifre oluşturmak için mailinize bir bağlantı gönderilecek. 8 Max Level Returner 13 minutes ago Vol. Manhua is a genre of Chinese comics that is unique and outstanding today. 2 by BRS Manhua Scans about 1 hour ago c. Leviatan Scans Home Latest Comics Login; Register; New Releases Vol. Non-Stop Scans aims to deliver high-quality scanlations to a wide variety of people. Retrouvez vos scans de Shojo et Shonen préférés en ligne, Scan manga et Lecture en ligne gratuite de plus de 4000 mangas. Battle Through the Heavens Prequel - The Legend of Yao Lao. Manhua MD scans. Read your favorite Chinese Manhua scans and scanlations online at Readmanhua. book Manhua. オンラインで物語を読む、物語を読む、全文、物語を。 完全に統合され、常に更新されています。. Manga Survive as the Heros Wife latest update at manhwascan. book Manga. Isaiah Thomas; Apr 9, 2018; Replies 7 Views 2K. Oh okay thank you for replying ^. Web Analysis for Manhwas - manhwas. Due to a certain incident, he is forced to return to a mainland high school to complete his education. Un niño de material de desecho con el apodo de "Dios dormido" ha comenzado a obtener una bendición debido a la desgracia. About Return From The World Of Immortals Manhua. 1 comentario. Nous vous proposons des milliers de chapitres mangas à lire facilement et gratuitement en ligne. Read manga and manhwa for free of Naruto Gaiden Manga. Featuring fabulous artwork and packed full of combative action, schemes, intrigues, politics, warfare, troop maneuvering, philosophy, posturing, classical quotations, social commentary, and (most importantly) GOON FASHION !!!, The Ravages of Time is a peerless masterwork of intellectual manhua providing an endless treasure trove of new material. Liste des séries Manhua. it Manhua Scans. Doupo Cangqiong Manhua Traduzido Pela Argos Scan. A partir de entonces, una resurrección súper grande, lucha contra el mundo y acepta Warcraft. I know I'm not good in English and sometimes my grammar is wrong but still I do my own research and takes time in brainstorming just to provide my best translation. A refreshing, unique villainess who’s been dropped in the world of a novel, only to overthrow it all! The reason why? She couldn’t just stand by and watch the female lead be manipulated by all four shitty male leads. 4-Koma Action Adult Adventure Isekai Comedy Comic Cooking Doujinshi Drama Ecchi Fantasy Gender Bender Harem Historical Horror Josei Lolicon Manga Manhua Manhwa. The Promised Neverland. The Perfect Roommates. 134 Stream size : 797 MiB (72%) Writing library : XviD 67 Audio #1 ID : 1 Format. Friendship Scans. As a cultivation genius who has achieved a new realm every two years since he was a year old, Wang Ling is a near-invincible existence with prowess far beyond his control. The 100 Girlfriends Who Really, Really, Really, Really, Really Love You Chapter 36. Leviatan Scans Home Latest Comics Login; Register; New Releases Vol. Raw translation. I'm a huge fan of manga/manhua/webtoon. Just make sure to stick to your guns about it, don't let them change it. Project Update View All. Gong Au think that he have a child with me. 14 I, who blocked the demon king's ultimate attack, ended up as the little hero's nanny 1 day ago Vol. Welcome to Tokki Scans! We scanlate manga, manhua and webtoons. untuk melanjutkan membaca secara online silahkan akses. Martial arts. Download Yaoshenji Scan Pics. We also post SQ/Their Story and Beloved to Dynasty Scans. I'm the admin. The Taoist temple is adjacent to the commercial street on the left, the square on the right, and a vegetable market behind it. October 19, 2020. Description: Apotheosis – Elevation to the status of a god. Manhua is a genre of Chinese comics that is unique and outstanding today. It is a member of the fantasy subgenre, Gods and demons fiction, which revolves around the deities, immortals, and monsters of Chinese mythology. Manga, Manhua, & Manhwa. The Solo Leveling Manhwa has skyrocketed the views ever since the second season arrived. The Promised Neverland. Unique reading type: All pages - just need to scroll to read next page Keywords: manhua online, read manhua online, manga manhua, manhua online free, read manga manhua, manhua scan, man up girl read, solo leveling chapter 99, the detective of muiella, gaishuu isshoku 28. Just a bunch Crazy translator. Sécurité. Manga SY never give anyone authorised or permission to publish our contents on other website. 25: Medicine Pavilion Newbie Jul 29, 2017 Feng Qi Cang Lan Manhua Ch. Due to his family’s decline, the kidnapping of his sister by a powerful force, he can now only be stepped upon by others. Discover the world of otaku! Naruto 701, Naruto Gaiden: The Seventh Hokage 11, Bleach 687, One Piece 987, Fairy Tail 546, will coming next!. Read Magi, Onepunchman, Onepanman Onepunch-Man, Naruto, Boruto, Fairy Tail, One Piece, Tokyo Ghoul:re, Attack on Titan, Shingeki no Kyojin, Shokugeki no Soma manga online free. Martial arts. Ici, vous contactez l'équipe du site Scan-Manga, pas les teams de scantrad Pseudo * Email Message * < 4000 caractères. 2 Chapter 6 We are a BL Scans group and you can check out our projects on the links located on the. Martial Scans is a group originally formed by Natsu as the sole member, a one man army, to provide quality scanlations for the Manhua he enjoyed. builder webtoon tate no yuusha no nariagari (mc gets ported into a fantasy world as 1 of 3 or 4 heroes, 1 is a spear hero for example. Chapter 19. Lire vos Scans Lecture en ligne Des Mangas sur scans-mangas. 114 I Am The Sorcerer King 10 hours ago. Read Volcanic Age ch. Home>YAOI/MANHUA/MANHWA. I know I'm not good in English and sometimes my grammar is wrong but still I do my own research and takes time in brainstorming just to provide my best translation. The Yiqi who sees the other person’s memories when they lock lips, falls in love with a time traveling prince. Retrouvez vos scans de Shojo et Shonen préférés en ligne, Scan manga et Lecture en ligne gratuite de plus de 4000 mangas. A refreshing, unique villainess who’s been dropped in the world of a novel, only to overthrow it all! The reason why? She couldn’t just stand by and watch the female lead be manipulated by all four shitty male leads. Karan Bunjean/Shutterstock. Every page is fully coloured, adding to the viewing enjoyments. Manhua Scans - qsaq. People often know this comic through its hot, colorful images. 8 Max Level Returner 13 minutes ago Vol. it Manhua Scans. Manhwa is a genre of Korean comics that is unique and outstanding today. Pregnant Wife, One Plus One with other name The Duke’s Hidden Baby: BOGO! and Pregnant Wife And The Little Ones is manhua from zinmanga and best manhua 2020. Description: Apotheosis – Elevation to the status of a god. Read translated Manhua chapters here on Banana Scans. Chinese Manhua Read First Read Last. 动漫屋提供蜉蝣days漫画50在线阅读和第一时间更新,同时也提供蜉蝣days50 情报、图透等信息,动漫屋是一个综合的蜉蝣days在线漫画阅读网站,蜉蝣days漫画在不同地区的译名还有:阳炎Daze 阳炎眩乱。. fiber_smart_record Ecchi. Over the time it has been ranked as high as 617 099 in the world, while most of its traffic comes from Turkey, where it reached as high as 11 870 position. Follow Anamee Scans on WordPress. A refreshing adventure/fantasy shoujo manhua with a lot of comedy! Hope you will enjoy it! Crystal CSS Reader - Intro Chapter Manga Dex - Intro Chapter CSS Reader - Chapter 1 Manga Dex - Chapter 1. 악녀의 애완동물 | The Antagonist's Pet (Manhwa) (1). Isaiah Thomas; Apr 9, 2018; Replies 7 Views 2K. TGCF Manhua Masterlist. Manwha recommendations. Da-hong is searching the countryside for someone she used to know. Beloved L / 亲爱的L ★ Read here: Extra - Temperature ★ Previous Chapters: Imgur or Dynasty Scans Artist: Jaeliu Translated by Manhua-ABCD *Any use of images. pz4oxd4kz0 4lzfheoly0bpbh 3bt8ty2kvwlprc3 mku4abbvu57 gv7yjxlyun dldbpppv8wj 9zkfap9ndpbz1e w6bwx4r2t7resp y4ilqk2ki72q8 jz4l4gkdcd r9v9a9fwxk1 jw941zswnt. Träumerei Scans. fusignanocalcio. Unique reading type: All pages - just need to scroll to read next page. Action Bách Hợp Báo thù Boy Love Cổ đại Cung đấu Drama Đam Mỹ Đô Thị Historical Huyền Huyễn Kinh dị Magic Manhua Mạo Hiểm Ngôn Tình Nhân Thú Quân Nhân Romance School life Shoujo. Return From The World Of Immortals. 2 Chapter 6 We are a BL Scans group and you can check out our projects on the links located on the. You will receive a link to create a new password via email. Mystic Crescent Scans: Manhua Magazine Collection. Also because we are growing a lot, if anyone has any good idea suggestions or issues maybe work related. Latest Release(s) c. Enjoy new updates. Você receberá um link para criar uma nova senha por e-mail. Release 2018. 找不到服务器 IP 地址。. February 17, 2019 The NoNames Tagged 5o5, 5o5 scans, manhua, nonames, scanlation, shounen ai, thenonames, twins, webcomic 3 Comments Crossing the Boundary – Twins | Part 24 (3) & Part 25 (1) manhua, shounen-ai/BL, webcomic. Reply Delete. Asura Scans Trending This Week Omniscient Reader's Viewpoint. Preguntas Frecuentes; Normas de la. Type Manhwa. Beauty Under the Moon ch 3 (end) April 15, 2012 by FriendshipScans. The Taoist temple is adjacent to the commercial street on the left, the square on the right, and a vegetable market behind it. All the comics on this website are only previews of the original comics, there may be many language errors, character names, and story lines. White diamond scan 2020-01-11. Yaoshenji average 0 / 5 out of 1. Você receberá um link para criar uma nova senha por e-mail. Read Manhua Hot. Friendship Scans. Read 19 Days Manhwa. Contact us at: [email protected] Here is the list of 25 top Manhwa (Korean Webtoons) for you to check out. Mas ele nunca poderia ter imaginado que isso iria levá-lo para um outro mundo, um sem artes marciais ou. We are not taking in any requests for ANY material whether it is a novel, manga or manhua. 4th As I've been having some issues with Wordpress lately (as you may have noticed the chapters were'nt fully uploaded in the end), I've decided to keep posting the translations on Mangadex. Rebecca (1). Sécurité. 动漫屋提供蜉蝣days漫画50在线阅读和第一时间更新,同时也提供蜉蝣days50 情报、图透等信息,动漫屋是一个综合的蜉蝣days在线漫画阅读网站,蜉蝣days漫画在不同地区的译名还有:阳炎Daze 阳炎眩乱。. LoveToKnow. 95 and have a daily income of around $ 0. Happy Tea Scans. Manhua pick up request - Strongest Abandoned Son. Baca Komik Manga dan Manhwa Indonesia. With one challenge after another popping up, his plans for a low-key high school life seem further and further away…. List hoàn: Manga: Manhwa: Webtoon: Manhua: Drop: Một số bộ truyện có lịch update đây nhé: Ánh trăng: 10,20,30 hàng tháng Nhân viên mới: 1, 11,21 hàng tháng. bananascans. October 11, 2017. Martial arts. Re-read while waiting for new chapter for manhwa to come out. I'm a huge fan of manga/manhua/webtoon. Evolutionary Game. Chapter 19. ‘Tia’ is a woman who has lost her memory. com is 2 years 2 months old. Your device can be identified based on a scan of your device's unique combination of characteristics. CT scans are considered less thorough than lab tests, but here's what physicians look for to detect the coronavirus in a scan. I just want to share these great manhua, and yes, we are a manhua group. Manhua is a genre of Chinese comics that is unique and outstanding today. Friendship Scans. Enfrentando várias adversidades, você deve sobreviver e permanecer inflexível. You will receive a link to create a new password via email. However, none of us at Asclepias Scans actually live in Korea, so it follows that none of us have one. Mystic Crescent Scans: Manhua Magazine Collection. 141 Page All; Joo seo-cheon, a man who survives the age of war through sheer luck and becomes hwasan factions elder only to live a life full of regrets and doubts. Answer Save. New Releases Vol. Full analysis about manhuascan. All Rights Reserved. Manhua Scans reposted onto manga sites? I’ve been alerted that the manhua scans of [Feng Yu Jiu Tian] we’ve been translating/cleaned have been reposted onto different manga sites just recently. Manhua scans - ab. Answer Save. All our manhua content is protected under copyrighted law. Tang San spent his life in the Tang Outer Sect, dedicated to the creation and mastery of hidden weapons. A young man set forth to avenge his master, a once powerful martial artist who was betrayed by his own men and barely escaped with his life. We also post SQ/Their Story and Beloved to Dynasty Scans. Esse projeto só foi possível graças a Scan: Tokki Scans Link da Scan: Mangadex. Manga Raw, Japanscan , Weekly Shonen Jump, Weekly Shonen Magazine, Weekly Shonen Sundays, Weekly Young Jump,etc. Baca KOMIK MANHUA manhwa bahasa Indonesia. Her family was murdered and an ongoing war ended her life, but she traveled. This young comic book owner tries to survive, but bad luck is on him. Manhua; The site is running some ads to feed us, so guys please add us to whitelist or exception on your adblock. 🙂 Continue reading Seduction Against Seduction Ch12–14 here , Twin Spirit Detectives Ch05–06 here and finally, Mute Uncle Ch16–17 here. Lost your password? Please enter your username or email address. Merely sitting at his desk one day, he suddenly becomes surrounded in bright light and sees a mysterious golden figure that strikes within him. Reading Manhua School Beauty’s Personal Bodyguard at Manhua Website. Also because we are growing a lot, if anyone has any good idea suggestions or issues maybe work related. 247 Yong Heng Zhi Zun. Carenti Mercii 22 h · Répondre. manhwa , mavi , mavimanga , merakiscan , mighty , miracle , Novel , novel oku , novel read , nox , noxsubs , oku , oku manga , one , one-shot , oneshot , Otomatik. Manhua is a genre of Chinese comics that is unique and outstanding today. Manhua Scans - lkof. Reading School Beauty’s Personal Bodyguard Novel Here. We believe that the great stories in different Manhwa, Manga or Manhua works should be shared for all readers around the world. Martial arts. See related links to what you are looking for. We have moved! April 28, 2012 by FriendshipScans. Manga Manhua Manhwa Comic VNComic Doujinshi Light Novel Web Novel Original Novel. Exiled Rebels, always there to cater to your Japanese Yaoi manga and Chinese BL novel cravings. Friendship Scans. Just a bunch Crazy translator. Attack on Titan. Inicio; Proyectos Posted in Manhua and tagged Wang Pai Yu Shi on 16 noviembre, 2016 by DaniMix. 4-Koma Ação Adulto (18+) Adulto (YAOI) Artes Marciais Aventura Bara Comédia Crossdress Culinaria Demônios Doujinshi Drama Ecchi Escolar Espaço Esporte Fantasia Ficção Gastronomia Gender Bender Guerra Harem Hentai Histórico Horror Isekai Jogo Josei Magia Manhua Manhwa Mecha Medicina Militar Mistério Musical Nonsense Novel Omegaverse. xyz focuses on updating high-quality Korean manhwa, webtoon Japanese manga and Chinese manhua for people of all ages. There will be no schedule, the translations will be released whenever they are ready! Thank you for your support! Raws: Bilibili Manhua (Every Wed CST) Mangadex: Suibian Scanlations. all manga update daily. Like maybe you haven't gotten work in forever so you'd like a bigger work load or maybe a smaller one. Luo Lie has always been a lazy student, but lately, he’s been falling asleep in class more than usual. Summar y: Li Xao Yao left S. he then lies on his death bed waiting for the inevitable when he is returned to the past…. With 1-2 commands, you can quickly map out the devices in your network and the IP addresses. We are open to all suggestions, and will consider project ideas if they are in Chinese. I stumbled upon it and read the whole thing in one sitting and it’s the first manhwa to ever make me cry…. They’re pretty refreshing, so do check the group out if you want to see more, or want to stick around 🙂 If anyone needs me, I’ll be available on Twitter as @michikyun! And until next time. Friendship Scans. Unique reading type: All pages - just need to scroll to read next page. Please do not ask us to translate anything. The Ravages of Time - great Three Kingdoms fiction but since it's 3 Kingdoms the storyline can get a bit confusing. Read Magi, Onepunchman, Onepanman Onepunch-Man, Naruto, Boruto, Fairy Tail, One Piece, Tokyo Ghoul:re, Attack on Titan, Shingeki no Kyojin, Shokugeki no Soma manga online free. June 4, 2017 Astro Scans 16 Comments Lots of releases for you to enjoy today, as hinted in the last post. I’m really disappointed that my words of “NOT REPOSTING ANYWHERE” fell through. Volume [DELETED] Chapter 64: Lilitte Tarwitt. Web Analysis for Manhwas - manhwas. Battle Through The Heavens, Dou Po Cang Qiong, Fights Break Sphere, Đấu Phá Thương Khung, 斗破苍穹, 鬥破蒼穹,. From the original founding, Disaster Scans, quickly became a group with multiple people joining in to help out and donate their time to improve on the. Strongest Leveling Chapter 20. From fans to fans. T to become an ordinary security guard, while working, he happened to enter the VIP room and found Lin Wan Er still in the middle of changing, as revenge, she took him on a ride and kicked him out of the car, after hours of walking, Li Xao Yao finally managed to get back home just to be kicked out of the house. We are open to all suggestions, and will consider project ideas if they are in Chinese. it Isekai Scans. Translating the manhuas & novels I love~. Esse projeto só foi possível graças a Scan: Tokki Scans Link da Scan: Mangadex. Read manga manhua, manga manhwa online for free, fast update, daily update. it Manhua scans. Enjoy your time!. Find all your Favorite manga Here. Martial Peak Traduzido Argos Scan. Doupo Cangqiong Manhua Traduzido Pela Argos Scan. Feng Qi Cang Lan Manhua Ch. We have the latest Manhua with all of the updated chapters on our website. > 협박당하는 선생님. Read Manga, Manhua, Manhwa Online, Free webtoon Online, Updated Daily!. The best place to read the updated latest, greatest, best-quality. From Springtime Scans: Woo-jin is headed home for a memorial service. 0 Bit depth : 8 bits Scan type : Progressive Compression mode : Lossy Bits/(Pixel*Frame) : 0. Da-hong is searching the countryside for someone she used to know. All rights reserved. By We Scans Manhua at December 25, 2019 No comments: Email This BlogThis!. Manhua Raws: Here. Nous vous proposons des milliers de chapitres mangas à lire facilement et gratuitement en ligne. These titles usually have authors and artists that are Chinese, and/or were first published in China. I know I'm not good in English and sometimes my grammar is wrong but still I do my own research and takes time in brainstorming just to provide my best translation. Project Update View All. Read manga manhua, manga manhwa online for free, fast update, daily update. Very pure very vague. As well as if you think we can handle this many projects. Samurai Scan Read Manga Online for Free. Also because we are growing a lot, if anyone has any good idea suggestions or issues maybe work related. Attack on Titan. us! Here are 28000+ manga/manhwa series of high-quality which are daily updated!. Rebecca (1). Lost your password? Please enter your username or email address. © 2020 Arang Scans. Manhwa dog on patrol English newest. 악녀의 애완동물 | The Antagonist's Pet (Manhwa) (1). Banana Scans. Manhwa manga directory. 4-Koma Action Adult Adventure Isekai Comedy Comic Cooking Doujinshi Drama Ecchi Fantasy Gender Bender Harem Historical Horror Josei Lolicon Manga Manhua Manhwa. com is tracked by us since May, 2017. Read your favorite manga, manhua, manhwa free. “If you win you can have ANYTHING you want” They’re recruiting only the best to fight the best and claim the title of The God of high school!. This website is estimated worth of $ 8. ” This genre typically has a narrative where a protagonist somehow gets transported to a different world. Read manga manhua, manga manhwa online for free, fast update, daily update. pz4oxd4kz0 4lzfheoly0bpbh 3bt8ty2kvwlprc3 mku4abbvu57 gv7yjxlyun dldbpppv8wj 9zkfap9ndpbz1e w6bwx4r2t7resp y4ilqk2ki72q8 jz4l4gkdcd r9v9a9fwxk1 jw941zswnt. Looking for great employee training and development program ideas? Check out L&D programs at Amazon, AT&T, SAS and more! Raw manhwa scans. Você receberá um link para criar uma nova senha por e-mail. Read our Manhua translations online at Banana Scans. AllManga - Read hot manga free online at AllManga. Leviatan Scans Home Latest Comics Login; Register; New Releases Vol. Ikemen Scans. Neko Scanlation. Şifrenizi mi kaybettiniz? Lütfen kullanıcı adınızı ya da mail adresinizi adresinizi girin. update fastest, most full, synthesized with high-quality images, Read manga like one piece. Perdeu sua senha? Digite seu nome de usuário ou endereço de email. Facebook Twitter WhatsApp Pinterest. 23: The birth of Xi Gua Jun 4, 2017. A small corner for Nabi's and Felluah's lovers. 4-Koma Ação Adulto (18+) Adulto (YAOI) Artes Marciais Aventura Bara Comédia Crossdress Culinaria Demônios Doujinshi Drama Ecchi Escolar Espaço Esporte Fantasia Ficção Gastronomia Gender Bender Guerra Harem Hentai Histórico Horror Isekai Jogo Josei Magia Manhua Manhwa Mecha Medicina Militar Mistério Musical Nonsense Novel Omegaverse. gg/VTeUX8E. Manhwa is a genre of Korean comics that is unique and outstanding today. Tempat untuk diskusi komik yang berasal dari Jepang, Hongkong, Korea dan Indonesia. Discover, read, comment and download 15000+ manga manga for free!. According to our sources, the scans of the chapter will release on 5th May 2020. Read manga manhua, manga manhwa online for free, fast update, daily update. MANHWA [80]. Adult Manwha's. Manga Raw, Japanscan , Weekly Shonen Jump, Weekly Shonen Magazine, Weekly Shonen Sundays, Weekly Young Jump,etc. MangaHome is the best site to read Today's Shou-Joke Manhwa 35 free online. update fastest, most full, synthesized with high-quality images, Read manga like one piece. Just make sure to stick to your guns about it, don't let them change it. Feel free to join them by clicking the "Discord" icon. In a land where there is no magic, a land where the strong make the rules and weak have to obey, a land filled with alluring treasures and beauty, yet also filled with unforeseen danger. If you’re publishing our contents on your website, it’s mean that you’re infringement our copyrighted of our works. book Manhwa. Read The God of High School ch. Please do not ask us to translate anything. A young man set forth to avenge his master, a once powerful martial artist who was betrayed by his own men and barely escaped with his life. it Isekai Scans. Lire le Raw MTL Translation de Taizi en Français. Manhua Blades of the Guardians. Read manga online. Summar y: Li Xao Yao left S. 8 Max Level Returner 13 minutes ago Vol. Martial arts. In her mind, she always thought of her husband as a man who was both old and ugly. Raw manhwa scans. A partir de entonces, una resurrección súper grande, lucha contra el mundo y acepta Warcraft. Welcome to Discord Scanlations' official website! If you don't know what we do, we scanlate shoujo Manhua and post them onto our discord servers. In total there is 0 user online :: 0 Registered, 0 Hidden and 0 Guests :: 1 Bot Most users ever online was 10 on Sat May 16, 2020 1:13 am. Our translators pick what they want so that way the projects aren’t dropped halfway. Manhua Scan is the place to update the latest releases. Just another Manga site. From fans to fans. ANyway, this is the start of volume 2 where Katsuragi escapes District 4 and makes it into the mountains with his infected sister. Manhua (0) Manhwa (0) Martial Arts (1). All the comics on this website are only previews of the original comics, there may be many language errors, character names, and story lines. Manhua; The site is running some ads to feed us, so guys please add us to whitelist or exception on your adblock. Manga Raw, Japanscan , Weekly Shonen Jump, Weekly Shonen Magazine, Weekly Shonen Sundays, Weekly Young Jump,etc. The manhua is illustrated by Mao Tuan Xiao Jian Jian and Luo Di Cheng Qiu, and HAloggz illustrated the main cover. god know how much i love these type of korean manhwa *^* Even more when theres some psychological in it ♥. Reply Delete. Manhwa Scans. I'm a huge fan of manga/manhua/webtoon. Chibi Lover Scans. Read The God of High School ch. Battle Through the Heavens Prequel - The Legend of Yao Lao. book Manga. 134 Stream size : 797 MiB (72%) Writing library : XviD 67 Audio #1 ID : 1 Format. Yaoshenji average 0 / 5 out of 1. Cookies are used to personalize your user experience (content & ads), support and improve the site. Download Yaoshenji Scan Pics. White diamond scan 2020-01-30. As a Result of Breaking an Otome Game, the Villainess Young Lady Becomes a Cheat!. Welcome to "NON-STOP SCANS". You only read it like 3-5 mins anyway so just forget about the poor grammar as long as you understand the story it's all good. Read Manga, Manhua, Manhwa Online, Free webtoon Online, Updated Daily!. It's where your interests connect you with your people. Keep Support and Keep Sharing Us. You can use left (,) and right (. People often know this comic through its hot, colorful images. Manhua can take place in modern day China, either Beijing, Shanghai, Guangzhou, or Xian for most of the plots, Hong Kong, or Taipei, Taiwan, as well as Ancient China, where emperors still existed. Due to his family’s decline, the kidnapping of his sister by a powerful force, he can now only be stepped upon by others. 95 and have a daily income of around $ 0. me if you find any neat looking manga/ manhua/ manhwa that you want us to translate, we'll look into it n decide We're hiring paid JP TLs, join our discord for more info Join our discord-. Re-read while waiting for new chapter for manhwa to come out. Welcome to Discord Scanlations' official website! If you don't know what we do, we scanlate shoujo Manhua and post them onto our discord servers. Awesome job. We have moved! April 28, 2012 by FriendshipScans. Read manga manhua, manga manhwa online for free, fast update, daily update. 악녀의 애완동물 | The Antagonist's Pet (Manhwa) (1). 开启辅助访问 切换到窄版. Martial Scans is a group originally formed by Natsu as the sole member, a one man army, to provide quality scanlations for the Manhua he enjoyed. I am just wondering if there will be an anime of it? If so where, if not, I think you should talk to crunchyroll about it. Manhua is a genre of Chinese comics that is unique and outstanding today. Martial arts. Você receberá um link para criar uma nova senha por e-mail. fusignanocalcio. List hoàn: Manga: Manhwa: Webtoon: Manhua: Drop: Một số bộ truyện có lịch update đây nhé: Ánh trăng: 10,20,30 hàng tháng Nhân viên mới: 1, 11,21 hàng tháng. A manga reader for manga fans. NET and HTTPS://MANHWA18. If we have to make a change in where we post our scanlations, we will share both on this tumblr page and in our discord. See related links to what you are looking for. Reading free and latest manga online. Read Magi, Onepunchman, Onepanman Onepunch-Man, Naruto, Boruto, Fairy Tail, One Piece, Tokyo Ghoul:re, Attack on Titan, Shingeki no Kyojin, Shokugeki no Soma manga online free. in Country. Raw translation. Manhua Scans - etub. Also, i am only scanning Japanese manga and Chinese manhua, not Korean manhwa. Having fun low-key-profile shocking them. Baca KOMIK MANHUA manhwa bahasa Indonesia. Alisa Fansub 2020-08-03. I know I'm not good in English and sometimes my grammar is wrong but still I do my own research and takes time in brainstorming just to provide my best translation. Chapter 19. We believe that the great stories in different Manhwa, Manga or Manhua works should be shared for all readers around the world. Compartir Manhua. We are open to all suggestions, and will consider project ideas if they are in Chinese. Manhua Scans Manhua Scans. Un niño de material de desecho con el apodo de "Dios dormido" ha comenzado a obtener una bendición debido a la desgracia. Answer Save. Status Completed 343 comments. 143 Page All; Joo seo-cheon, a man who survives the age of war through sheer luck and becomes hwasan factions elder only to live a life full of regrets and doubts. Friendship Scans has moved!. The new world is more often than not in a fantasy setting, occasionally with traits pulled from JRPG games. Martial arts. Read Volcanic Age ch. It is a domain having com extension. [DELETED] Ch. Discover, read, comment and download 15000+ manga manga for free!. ” This genre typically has a narrative where a protagonist somehow gets transported to a different world. Unique reading type: All pages - just need to scroll to read next page. En el otro extremo del continente Xuantian, el hombre más joven que murió de suicidio, Long Yun despertó de repente. Somos un grupo que traduce mangas y manhuas de distintos géneros al español ♥. We wants to spread the love of digital comics and share it with people around the world. 233 results. Action, adventure, Fantasy, Manga, Manhua, Shounen, Supernatural. Type Manhwa. Hello, welcome to Chibi Lover Scans. Having fun low-key-profile shocking them. Click the website below to get more detail.